<?xml version="1.0" standalone="no"?>
<!DOCTYPE svg PUBLIC "-//W3C//DTD SVG 1.1//EN" "http://www.w3.org/Graphics/SVG/1.1/DTD/svg11.dtd" >
<svg xmlns="http://www.w3.org/2000/svg">
<metadata>Generated by IcoMoon</metadata>
<defs>
<font id="icomoon" horiz-adv-x="1024">
<font-face units-per-em="1024" ascent="960" descent="-64" />
<missing-glyph horiz-adv-x="1024" />
<glyph unicode="&#x20;" horiz-adv-x="512" d="" />
<glyph unicode="&#xe900;" glyph-name="origen" d="M976.538 901.018c-5.222 5.478-13.619 7.066-20.685 3.84l-902.912-414.464c-7.27-3.43-11.366-10.906-10.445-18.893 1.126-7.936 7.066-14.080 15.002-15.462l404.992-67.994 46.387-382.669c0.922-7.936 7.066-14.336 15.002-15.667 1.126-0.205 2.048-0.205 3.174-0.205 6.81 0 13.21 3.84 16.384 10.24l436.582 880.64c3.123 6.81 1.741 14.95-3.482 20.634v0z" />
<glyph unicode="&#xe901;" glyph-name="fechas" d="M910.899 830.464h-76.698v52.378c0 38.554-31.232 69.734-69.734 69.734h-2.765c-38.554 0-69.734-31.232-69.734-69.734v-52.378h-359.885v52.378c0 38.554-31.232 69.734-69.734 69.734h-2.765c-38.554 0-69.734-31.232-69.734-69.734v-52.378h-76.749c-38.554 0-69.734-31.232-69.734-69.734v-747.571c0-38.554 31.232-69.734 69.734-69.734h797.747c38.502 0 69.734 31.232 69.734 69.734v747.571c0.051 38.502-31.181 69.734-69.683 69.734v0zM863.488 53.606h-702.976v566.272h702.925l0.051-566.272zM256.051 363.622h121.344c6.144 0 11.162 4.966 11.162 11.162v121.344c0 6.195-4.966 11.162-11.162 11.162h-121.344c-6.195 0-11.162-4.966-11.162-11.162v-121.344c0-6.144 5.018-11.162 11.162-11.162v0zM451.328 363.622h121.344c6.144 0 11.162 4.966 11.162 11.162v121.344c0 6.195-4.966 11.162-11.162 11.162h-121.344c-6.195 0-11.162-4.966-11.162-11.162v-121.344c0-6.144 5.018-11.162 11.162-11.162v0zM646.605 363.622h121.344c6.144 0 11.162 4.966 11.162 11.162v121.344c0 6.195-4.966 11.162-11.162 11.162h-121.344c-6.195 0-11.162-4.966-11.162-11.162v-121.344c0-6.144 4.966-11.162 11.162-11.162v0zM256.051 168.346h121.344c6.144 0 11.162 4.966 11.162 11.162v121.344c0 6.195-4.966 11.162-11.162 11.162h-121.344c-6.195 0-11.162-4.966-11.162-11.162v-121.344c0-6.144 5.018-11.162 11.162-11.162v0zM451.328 168.346h121.344c6.144 0 11.162 4.966 11.162 11.162v121.344c0 6.195-4.966 11.162-11.162 11.162h-121.344c-6.195 0-11.162-4.966-11.162-11.162v-121.344c0-6.144 5.018-11.162 11.162-11.162v0zM646.605 168.346h121.344c6.144 0 11.162 4.966 11.162 11.162v121.344c0 6.195-4.966 11.162-11.162 11.162h-121.344c-6.195 0-11.162-4.966-11.162-11.162v-121.344c0-6.144 4.966-11.162 11.162-11.162v0z" />
<glyph unicode="&#xe902;" glyph-name="destino" d="M680.294 582.451c0-92.946-75.348-168.294-168.294-168.294s-168.294 75.348-168.294 168.294c0 92.946 75.348 168.294 168.294 168.294s168.294-75.348 168.294-168.294zM512-45.312c0 0 372.429 422.042 372.429 627.712s-166.707 372.48-372.429 372.48-372.429-166.758-372.429-372.429 372.429-627.763 372.429-627.763zM512 839.578c141.978 0 257.126-115.098 257.126-257.126s-115.149-257.126-257.126-257.126-257.126 115.098-257.126 257.126 115.149 257.126 257.126 257.126z" />
<glyph unicode="&#xe903;" glyph-name="buscar" d="M973.363 119.45l-222.362 222.413c37.786 60.518 59.648 131.942 59.648 208.538 0 217.856-176.64 394.496-394.445 394.496-217.856 0-394.496-176.64-394.496-394.496s176.64-394.445 394.496-394.445c69.683 0 135.117 18.125 191.949 49.869l225.792-225.792c38.502-38.502 101.018-38.502 139.418 0 38.554 38.4 38.554 100.915 0 139.418zM120.371 550.4c0 163.123 132.659 295.885 295.834 295.885 163.123 0 295.885-132.71 295.885-295.834s-132.762-295.885-295.885-295.885c-163.123 0-295.834 132.71-295.834 295.834z" />
<glyph unicode="&#xe904;" glyph-name="advertencia" d="M511.971 960c-282.754 0-511.971-229.217-511.971-511.971s229.217-511.971 511.971-511.971c282.754 0 511.971 229.217 511.971 511.971v0c0 0.085 0 0.186 0 0.286 0 282.596-229.089 511.685-511.685 511.685-0.101 0-0.202 0-0.302 0h0.016zM584.194 767.159l-15.178-455.385h-108.362l-15.178 455.385zM567.928 122.598c-12.91-12.080-30.314-19.499-49.45-19.499-1.221 0-2.435 0.030-3.641 0.090l0.17-0.007c-1.032-0.053-2.24-0.084-3.455-0.084-18.977 0-36.221 7.425-48.983 19.529l0.032-0.030c-12.321 11.812-19.978 28.406-19.978 46.788 0 0.868 0.017 1.732 0.051 2.591l-0.004-0.124c-0.013 0.497-0.021 1.082-0.021 1.669 0 18.628 7.633 35.473 19.943 47.578l0.009 0.009c12.851 12.069 30.197 19.484 49.275 19.484 1.101 0 2.196-0.025 3.285-0.074l-0.155 0.006c1.127 0.063 2.445 0.099 3.772 0.099 19.043 0 36.351-7.429 49.184-19.548l-0.035 0.032c12.313-12.737 19.901-30.11 19.901-49.256s-7.588-36.518-19.92-49.276l0.019 0.020z" />
<glyph unicode="&#xe905;" glyph-name="ticket" d="M708.096 944.64h-92.672c0-56.832-46.080-102.4-102.4-102.4-56.832 0-102.912 45.568-102.912 102.4h-92.672c-42.496 0-76.8-34.304-76.8-76.8v-162.304h0.512v-674.304c0-42.496 34.304-76.8 76.8-76.8h92.672c0 56.832 46.080 102.4 102.4 102.4 56.832 0 102.4-46.080 102.4-102.4h92.672c42.496 0 76.8 34.304 76.8 76.8v836.608c0 42.496-34.304 76.8-76.8 76.8zM302.080 628.224h-29.696c-10.752 0-18.944 8.704-18.944 19.968s8.704 19.968 18.944 19.968h29.696c10.752 0 18.944-8.704 18.944-19.968s-8.192-19.968-18.944-19.968zM422.4 628.224h-59.904c-10.752 0-18.944 8.704-18.944 19.968s8.704 19.968 18.944 19.968h59.904c10.752 0 18.944-8.704 18.944-19.968s-8.192-19.968-18.944-19.968zM542.72 628.224h-59.904c-10.752 0-18.944 8.704-18.944 19.968s8.704 19.968 18.944 19.968h59.904c10.752 0 18.944-8.704 18.944-19.968s-8.192-19.968-18.944-19.968zM663.040 628.224h-59.904c-10.752 0-18.944 8.704-18.944 19.968s8.704 19.968 18.944 19.968h59.904c10.752 0 18.944-8.704 18.944-19.968s-8.192-19.968-18.944-19.968zM752.64 628.224h-29.696c-10.752 0-18.944 8.704-18.944 19.968s8.704 19.968 18.944 19.968h29.696c10.752 0 18.944-8.704 18.944-19.968s-8.192-19.968-18.944-19.968z" />
<glyph unicode="&#xe906;" glyph-name="politics" d="M790.016 924.16h-552.448c-36.352 0-65.536-29.184-65.536-65.536v-813.568c0-36.352 29.184-65.536 65.536-65.536h552.448c36.352 0 65.536 29.184 65.536 65.536v813.568c0.512 36.352-29.184 65.536-65.536 65.536zM684.032 126.976h-171.52c-15.872 0-28.672 12.8-28.672 28.672s12.8 28.672 28.672 28.672h171.52c15.872 0 28.672-12.8 28.672-28.672s-12.8-28.672-28.672-28.672zM703.488 302.592h-408.064c-22.528 0-40.96 12.8-40.96 28.672s18.432 28.672 40.96 28.672h407.552c22.528 0 40.96-12.8 40.96-28.672s-17.92-28.672-40.448-28.672zM703.488 416.768h-408.064c-22.528 0-40.96 12.8-40.96 28.672s18.432 28.672 40.96 28.672h407.552c22.528 0 40.96-12.8 40.96-28.672s-17.92-28.672-40.448-28.672zM703.488 531.456h-408.064c-22.528 0-40.96 12.8-40.96 28.672s18.432 28.672 40.96 28.672h407.552c22.528 0 40.96-12.8 40.96-28.672s-17.92-28.672-40.448-28.672zM744.448 671.744c-1.536-15.872-15.36-27.648-30.72-26.112h-428.544c-1.536 0-3.072 0-4.608 0-15.872 1.536-27.648 15.36-26.112 30.72 1.536 15.872 15.36 27.648 30.72 26.112h428.032c1.536 0 3.072 0 4.608 0 16.384-1.024 27.648-14.848 26.624-30.72z" />
<glyph unicode="&#xe907;" glyph-name="save" d="M512.819 252.928c9.216 0 17.408 2.56 26.624 12.288l157.696 152.576c7.168 7.168 11.264 14.336 11.264 24.064 0 18.944-14.848 32.768-33.792 32.768-8.704 0-18.432-3.584-25.088-11.264l-101.888-108.544 2.56 70.144v491.52c0 19.456-16.896 36.352-36.864 36.352s-37.376-16.896-37.376-36.352v-491.52l2.56-70.144-101.888 108.544c-6.656 7.68-16.896 11.264-25.6 11.264-19.456 0-33.792-13.312-33.792-32.768 0-9.728 4.096-17.408 11.264-24.064l157.696-152.576c9.216-9.216 16.896-12.288 26.624-12.288zM245.043-53.76h535.040c97.28 0 146.432 48.64 146.432 144.384v465.408c0 96.256-49.152 144.384-146.432 144.384h-130.048v-75.264h128.512c46.080 0 72.704-25.088 72.704-73.728v-457.216c0-48.64-26.624-73.728-72.704-73.728h-532.48c-46.592 0-72.192 25.088-72.192 73.728v457.216c0 48.64 25.6 73.728 72.192 73.728h129.024v75.264h-130.048c-97.28 0-146.432-48.64-146.432-144.384v-465.408c0-95.744 49.152-144.384 146.432-144.384z" />
<glyph unicode="&#xe908;" glyph-name="delete" d="M829.491 58.88l30.72 650.752h53.76c18.432 0 33.28 15.872 33.28 33.792 0 18.432-14.848 33.792-33.28 33.792h-204.8v67.072c0 64.512-43.52 105.472-112.128 105.472h-167.424c-69.12 0-112.128-40.96-112.128-105.472v-67.072h-204.288c-17.92 0-33.28-15.872-33.28-33.792 0-18.432 15.36-33.792 33.28-33.792h54.272l30.72-651.264c3.072-64 45.056-104.96 110.080-104.96h410.624c64.512 0 107.52 41.472 110.592 105.472zM389.683 840.192c0 25.6 18.432 43.52 45.568 43.52h157.184c27.136 0 46.080-17.92 46.080-43.52v-62.464h-248.832v62.464zM314.931 20.992c-25.6 0-44.544 19.456-46.080 45.568l-31.232 643.072h550.912l-29.696-643.072c-1.536-26.624-19.968-45.568-47.104-45.568h-396.8zM646.707 99.328c14.848 0 25.6 12.288 26.112 29.184l13.312 469.504c0.512 16.384-10.752 29.184-26.112 29.184-13.824 0-25.6-12.8-26.112-29.184l-13.312-468.992c0-16.896 11.264-29.696 26.112-29.696zM381.491 99.328c15.36 0 26.624 12.8 26.112 29.696l-13.824 468.992c-0.512 15.872-12.288 29.184-26.112 29.184-15.36 0-26.624-12.288-26.112-29.184l13.312-469.504c0.512-17.408 11.264-29.184 26.624-29.184zM514.099 99.328c14.848 0 27.136 12.8 27.136 29.184v469.504c0 15.872-12.288 29.184-27.136 29.184-14.336 0-26.624-12.8-26.624-29.184v-469.504c-0.512-16.384 12.288-29.184 26.624-29.184z" />
<glyph unicode="&#xe90a;" glyph-name="user" d="M636.416 284.672v82.432c18.432 9.216 71.68 72.192 77.312 121.856 14.848 1.024 37.376 14.336 44.544 67.584 3.584 28.672-10.752 44.544-19.456 49.664 0 0 22.016 41.472 22.016 91.136 0 100.352-39.424 185.856-123.904 185.856 0 0-29.184 61.952-123.904 61.952-175.104-0.512-247.808-112.64-247.808-247.808 0-45.568 22.016-91.136 22.016-91.136-8.704-5.12-23.040-20.992-19.456-49.664 6.656-52.736 29.696-66.56 44.544-67.584 5.632-49.152 58.88-112.64 77.312-121.856v-82.432c-41.472-123.904-371.2-41.472-371.2-330.24h990.208c-1.024 288.768-330.752 206.336-372.224 330.24z" />
<glyph unicode="&#xe90b;" glyph-name="question" d="M512.12 960c-282.836 0-512.12-229.284-512.12-512.12s229.284-512.12 512.12-512.12c282.836 0 512.12 229.284 512.12 512.12v0c0 0.1 0 0.217 0 0.335 0 282.651-229.134 511.785-511.785 511.785-0.118 0-0.236 0-0.353 0h0.018zM551.701 123.378c-13.188-12.144-30.866-19.59-50.283-19.59-1.067 0-2.129 0.022-3.186 0.067l0.151-0.005c-1.102-0.061-2.392-0.096-3.69-0.096-19.002 0-36.257 7.477-48.984 19.649l0.026-0.025c-12.404 12.632-20.061 29.962-20.061 49.080 0 19.381 7.869 36.924 20.586 49.609l0.001 0.001c14.093 12.145 32.579 19.542 52.791 19.542s38.698-7.397 52.897-19.631l-0.105 0.089c12.701-12.008 20.606-28.975 20.606-47.787 0-0.649-0.009-1.295-0.028-1.94l0.002 0.095c-0.156-19.223-8.092-36.562-20.809-49.048l-0.011-0.010zM692.127 526.134c-16.601-29.109-36.672-53.998-60.102-75.253l-0.252-0.225-36.423-34.843c-21.2-19.599-35.498-46.393-39-76.48l-0.055-0.577-1.579-27.425h-116.065c-0.11 2.907-0.173 6.321-0.173 9.75 0 32.626 5.674 63.926 16.090 92.968l-0.602-1.921c13.413 29.359 32.32 54.075 55.597 73.79l0.305 0.252c20.852 17.028 38.807 36.488 53.762 58.175l0.609 0.934c8.468 13.631 13.556 30.134 13.736 47.812v0.049c0 50.685-23.213 76.579-70.213 76.579-0.859 0.037-1.867 0.059-2.879 0.059-19.62 0-37.375-7.982-50.196-20.875l-0.003-0.003c-13.11-14.451-21.135-33.724-21.135-54.871 0-0.75 0.010-1.497 0.030-2.242l-0.002 0.11h-131.667c-0.105 2.257-0.165 4.903-0.165 7.562 0 50.426 21.572 95.813 55.991 127.438l0.125 0.113c36.987 30.48 84.851 48.963 137.033 48.963 4.528 0 9.023-0.139 13.482-0.413l-0.612 0.030c4.248 0.299 9.206 0.469 14.203 0.469 50.925 0 97.723-17.674 134.592-47.224l-0.425 0.329c32.611-30.050 52.969-72.97 52.969-120.645 0-3.609-0.117-7.19-0.346-10.74l0.025 0.484c-0.008-26.267-6.211-51.084-17.227-73.071l0.428 0.943z" />
<glyph unicode="&#xe90c;" glyph-name="travel" horiz-adv-x="893" d="M681.626 845.187c0-63.409-51.403-114.813-114.813-114.813s-114.813 51.403-114.813 114.813c0 63.409 51.403 114.813 114.813 114.813s114.813-51.403 114.813-114.813zM853.341 565.19c-102.568 10.564-202.063 121.583-227.081 136.949-14.344 10.424-31.541 17.848-50.194 20.982l-0.706 0.098c-5.021 0.98-10.795 1.541-16.699 1.541-2.963 0-5.892-0.141-8.783-0.417l0.368 0.028c-22.149-1.233-42.173-9.435-58.144-22.426l0.185 0.146c-7.414-5.872-14.031-11.955-20.175-18.488l-0.089-0.095c-70.946-72.321-129.516-157.098-172.075-250.696l-2.233-5.484c-1.979-4.856-3.128-10.489-3.128-16.392 0-11.872 4.647-22.658 12.222-30.638l-0.018 0.020-54.837-97.718-77.214 43.217c-2.706 1.546-5.947 2.458-9.401 2.458-7.134 0-13.359-3.889-16.672-9.663l-0.050-0.094-146.169-258.293c-1.539-2.701-2.446-5.935-2.446-9.38 0-7.149 3.905-13.385 9.699-16.692l0.094-0.050 58.487-32.893c-3.53-6.181-5.612-13.584-5.612-21.474 0-24.239 19.65-43.889 43.889-43.889s43.889 19.65 43.889 43.889c0 10.245-3.51 19.669-9.393 27.137l0.071-0.094 79.807 140.071 55.942 99.639 69.339 120.047c15.772 2.544 28.604 13.065 34.37 27.217l0.107 0.298c22.41 52.446 49.189 97.674 80.98 138.832l-1.077-1.45 13.925-160.047c1.563-18.345 9.285-34.639 21.064-47.044l-0.032 0.034c-35.918-65.113-132.532-243.119-167.393-303.623-4.941-8.242-7.863-18.184-7.863-28.809 0-31.32 25.39-56.71 56.71-56.71 21.083 0 39.479 11.505 49.252 28.579l0.146 0.277c32.509 56.326 117.262 227.321 154.428 291.57 47.284-78.529 95.784-172.516 138.498-269.623l6.519-16.617c9.031-20.073 28.855-33.796 51.884-33.796 31.328 0 56.725 25.397 56.725 56.725 0 8.299-1.782 16.182-4.985 23.287l0.144-0.358c-53.553 124.512-108.052 228.733-169.237 328.408l6.309-11.052c11.212 13.489 18.016 30.989 18.016 50.077 0 2.403-0.108 4.78-0.319 7.128l0.022-0.303-13.157 151.595c47.466-37.255 107.054-61.091 172.020-64.929l0.848-0.040c1.367-0.153 2.951-0.241 4.556-0.241 0.087 0 0.173 0 0.259 0.001h-0.013c24.545 0.086 44.41 20.004 44.41 44.561 0 22.984-17.401 41.904-39.748 44.304l-0.196 0.017zM105.641-37.494c-8.831 0-15.99 7.159-15.99 15.99s7.159 15.99 15.99 15.99c8.831 0 15.99-7.159 15.99-15.99v0c0-8.831-7.159-15.99-15.99-15.99v0z" />
<glyph unicode="&#xe90d;" glyph-name="pay" horiz-adv-x="1536" d="M1504.044 575.992h-1472.054c-0.535 0.034-1.16 0.053-1.789 0.053-16.708 0-30.253-13.545-30.253-30.253 0-0.629 0.019-1.255 0.057-1.874l-0.004 0.085v-447.987c-0.007-0.539-0.010-1.176-0.010-1.814 0-87.525 70.953-158.479 158.479-158.479 0.638 0 1.274 0.004 1.91 0.011l-0.097-0.001h1215.47c0.539-0.007 1.176-0.010 1.814-0.010 87.525 0 158.479 70.953 158.479 158.479 0 0.638-0.004 1.274-0.011 1.91l0.001-0.097v447.987c0.034 0.535 0.053 1.16 0.053 1.789 0 16.708-13.545 30.253-30.253 30.253-0.629 0-1.255-0.019-1.874-0.057l0.085 0.004zM223.994 320.008h255.983c17.667 0 31.99-14.322 31.99-31.99s-14.322-31.99-31.99-31.99h-255.983c-17.667 0-31.99 14.322-31.99 31.99s14.322 31.99 31.99 31.99v0zM671.981 128.004h-447.987c-17.667 0-31.99 14.322-31.99 31.99s14.322 31.99 31.99 31.99h447.987c17.667 0 31.99-14.322 31.99-31.99s-14.322-31.99-31.99-31.99v0zM1216.004 128.004c-0.71-0.017-1.546-0.026-2.384-0.026-23.042 0-44.4 7.208-61.944 19.491l0.348-0.231c-17.195-12.053-38.554-19.26-61.595-19.26-0.838 0-1.674 0.010-2.508 0.029l0.124-0.002c-69.437 1.636-125.101 58.313-125.101 127.992s55.664 126.355 124.949 127.989l0.152 0.003c0.71 0.017 1.546 0.026 2.384 0.026 23.042 0 44.4-7.208 61.944-19.491l-0.348 0.231c17.195 12.053 38.554 19.26 61.595 19.26 0.838 0 1.674-0.010 2.508-0.029l-0.124 0.002c69.437-1.636 125.101-58.313 125.101-127.992s-55.664-126.355-124.949-127.989l-0.152-0.003zM1375.752 960h-1215.47c-0.539 0.007-1.176 0.010-1.814 0.010-87.525 0-158.479-70.953-158.479-158.479 0-0.638 0.004-1.274 0.011-1.91l-0.001 0.097v-63.979c-0.034-0.535-0.053-1.16-0.053-1.789 0-16.708 13.545-30.253 30.253-30.253 0.629 0 1.255 0.019 1.874 0.057l-0.085-0.004h1472.054c0.54-0.034 1.171-0.054 1.806-0.054 16.708 0 30.253 13.545 30.253 30.253 0 0.724-0.025 1.442-0.075 2.153l0.005-0.096v63.979c0.005 0.46 0.008 1.003 0.008 1.546 0 87.525-70.953 158.479-158.479 158.479-0.637 0-1.272-0.004-1.907-0.011l0.096 0.001z" />
<glyph unicode="&#xe90e;" glyph-name="arrow-right" horiz-adv-x="567" d="M350.156 514.841l-329.832 329.832c-12.266 12.165-19.859 29.025-19.859 47.659s7.593 35.494 19.855 47.655l0.005 0.005c12.165 12.266 29.025 19.859 47.659 19.859s35.494-7.593 47.655-19.855l422.477-422.477c17.68-17.784 28.608-42.297 28.608-69.362s-10.928-51.578-28.612-69.366l-423.018-423.018c-12.165-12.266-29.025-19.859-47.659-19.859s-35.494 7.593-47.655 19.855l-0.005 0.005c-12.266 12.165-19.859 29.025-19.859 47.659s7.593 35.494 19.855 47.655l0.005 0.005 330.384 329.281 48.683 47.265c5.209 4.961 8.449 11.949 8.449 19.694s-3.24 14.733-8.438 19.683l-0.011 0.011z" />
<glyph unicode="&#xe90f;" glyph-name="secure" d="M852.48 833.536c-57.344 23.552-241.664 90.624-299.008 110.080-13.312 4.608-27.136 6.656-40.96 6.656s-27.648-3.072-40.448-6.656c-57.344-18.432-241.664-87.040-299.52-110.080-40.96-16.896-62.976-33.28-62.976-84.48v-371.712c0-177.152 95.232-242.176 370.688-397.312 12.8-6.656 24.576-9.216 32.768-9.216 7.68 0 19.968 3.072 32.768 9.216 280.576 146.944 370.688 220.16 370.688 397.312v371.712c-0.512 50.688-22.528 67.072-64 84.48zM413.696 235.52l-187.392 187.392 67.584 67.584 120.32-120.32 317.952 316.416 67.584-68.096-386.048-382.976z" />
<glyph unicode="&#xe910;" glyph-name="close" d="M990.72 49.664c-7.68 7.68-15.872 15.872-23.552 23.552-21.504 21.504-42.496 42.496-64 64-31.232 31.232-62.976 62.976-94.208 94.208-38.4 38.4-76.8 76.8-115.2 115.2-34.304 34.304-68.608 68.608-102.912 102.912 24.064 24.064 48.128 48.128 72.192 72.192 39.424 39.424 79.36 79.36 118.784 118.784 33.792 33.792 67.072 67.072 100.864 100.864 24.064 24.064 48.128 48.128 72.192 72.192 11.264 11.264 23.040 22.528 34.304 34.304 0.512 0.512 1.024 1.024 1.536 1.536 9.728 9.728 15.872 24.576 15.872 38.912 0 13.312-6.144 29.696-15.872 38.912-21.504 19.968-55.808 21.504-77.312 0-7.68-7.68-15.872-15.872-23.552-23.552-21.504-21.504-42.496-42.496-64-64-31.232-31.232-62.976-62.976-94.208-94.208-38.4-38.4-76.8-76.8-115.2-115.2-33.792-34.304-68.608-68.608-102.912-103.424-24.576 24.576-48.64 48.64-73.216 73.216-39.424 39.424-79.36 79.36-118.784 118.784-33.28 33.28-66.56 67.072-100.352 100.352-24.064 24.064-48.128 48.128-72.192 72.192-11.264 11.264-22.528 23.040-34.304 34.304-0.512 0.512-1.024 1.024-1.536 1.536-9.728 9.728-24.576 15.872-38.912 15.872-12.8 0-29.184-6.144-38.4-15.872-19.968-22.016-21.504-55.808 0-77.312 7.68-7.68 15.872-15.872 23.552-23.552 21.504-21.504 42.496-42.496 64-64 31.232-31.232 62.976-62.976 94.208-94.208 38.4-38.4 76.8-76.8 115.2-115.2 34.304-34.304 68.608-68.608 103.424-103.424-24.576-24.576-48.64-48.64-72.704-72.704-39.424-39.424-79.36-79.36-118.784-118.784-33.792-33.792-67.072-67.072-100.864-100.864-24.064-24.064-48.128-48.128-72.192-72.192-11.264-11.264-23.040-22.528-34.304-34.304-0.512-0.512-1.024-1.024-1.536-1.536-9.728-9.728-15.872-24.576-15.872-38.912 0-13.312 6.144-29.696 15.872-38.912 22.016-19.968 55.808-21.504 77.312 0 7.68 7.68 15.872 15.872 23.552 23.552 21.504 21.504 42.496 42.496 64 64 31.232 31.232 62.976 62.976 94.208 94.208 38.4 38.4 76.8 76.8 115.2 115.2 34.816 34.816 69.12 69.12 103.936 103.936 24.064-24.064 48.64-48.64 72.704-72.704 39.424-39.424 79.36-79.36 118.784-118.784 33.792-33.792 67.072-67.072 100.864-100.864 24.064-24.064 48.128-48.128 72.192-72.192 11.264-11.264 22.528-23.040 34.304-34.304 0.512-0.512 1.024-1.024 1.536-1.536 9.728-9.728 24.576-15.872 38.912-15.872 13.312 0 29.696 6.144 38.912 15.872 18.944 22.016 20.48 56.32-1.536 77.824z" />
<glyph unicode="&#xe911;" glyph-name="send" d="M512.819 957.952c-9.216 0-17.408-2.56-26.624-12.288l-157.696-152.576c-7.168-7.168-11.264-14.336-11.264-24.064 0-18.944 14.848-32.768 33.792-32.768 8.704 0 18.432 3.584 25.088 11.264l101.888 108.544-2.56-70.144v-491.52c0-19.456 16.896-36.352 36.864-36.352s37.376 16.896 37.376 36.352v491.52l-2.56 70.144 101.888-108.544c6.656-7.68 16.896-11.264 25.6-11.264 19.456 0 33.792 13.312 33.792 32.768 0 9.728-4.096 17.408-11.264 24.064l-157.696 152.576c-9.216 9.216-16.896 12.288-26.624 12.288zM245.043-64h535.040c97.28 0 146.432 48.64 146.432 144.384v465.408c0 96.256-49.152 144.384-146.432 144.384h-130.048v-75.264h128.512c46.080 0 72.704-25.088 72.704-73.728v-457.216c0-48.64-26.624-73.728-72.704-73.728h-532.48c-46.592 0-72.192 25.088-72.192 73.728v457.216c0 48.64 25.6 73.728 72.192 73.728h129.024v75.264h-130.048c-97.28 0-146.432-48.64-146.432-144.384v-465.408c0-95.744 49.152-144.384 146.432-144.384z" />
<glyph unicode="&#xe912;" glyph-name="clock" d="M512-58.88c-280.064 0-508.416 227.84-508.416 508.416s228.352 508.416 508.416 508.416c280.064 0 508.416-227.84 508.416-508.416 0-280.064-228.352-508.416-508.416-508.416zM512 872.96c-233.472 0-423.424-189.952-423.424-423.424s189.952-423.424 423.424-423.424c233.472 0 423.424 189.952 423.424 423.424s-189.952 423.424-423.424 423.424zM592.384 449.536c0-44.395-35.989-80.384-80.384-80.384s-80.384 35.989-80.384 80.384c0 44.395 35.989 80.384 80.384 80.384s80.384-35.989 80.384-80.384zM512 416.256c-18.432 0-33.28 13.312-33.28 29.184v331.776c0 15.872 14.848 29.184 33.28 29.184s33.28-13.312 33.28-29.184v-331.776c0-15.872-14.848-29.184-33.28-29.184zM660.48 282.624c-8.192 0-16.384 3.072-22.528 8.704l-131.072 120.832c-13.312 12.288-14.336 33.28-2.048 47.104 12.288 13.312 33.28 14.336 47.104 2.048l131.072-120.832c13.312-12.288 14.336-33.28 2.048-47.104-6.656-7.168-15.872-10.752-24.576-10.752z" />
<glyph unicode="&#xe914;" glyph-name="arrow-left" d="M448 384.512l318.976-318.976c25.6-25.6 25.6-66.56 0-92.16v0c-25.6-25.6-66.56-25.6-92.16 0l-408.576 408.576c-36.864 36.864-36.864 97.28 0 134.144l408.576 408.576c25.6 25.6 66.56 25.6 92.16 0v0c25.6-25.6 25.6-66.56 0-92.16l-318.976-317.952-47.104-46.080c-10.752-10.24-10.752-27.648 0-37.888l47.104-46.080z" />
<glyph unicode="&#xe97b;" glyph-name="filter" horiz-adv-x="985" d="M139.641 960h48.883v-1024h-48.883zM468.992 960h48.883v-1024h-48.883zM796.726 960h48.883v-1024h-48.883zM301.703 285.4c0-75.872-61.506-137.378-137.378-137.378s-137.378 61.506-137.378 137.378c0 75.872 61.506 137.378 137.378 137.378s137.378-61.506 137.378-137.378zM631.053 746.954c0-75.872-61.506-137.378-137.378-137.378s-137.378 61.506-137.378 137.378c0 75.872 61.506 137.378 137.378 137.378s137.378-61.506 137.378-137.378zM958.302 285.4c0-75.872-61.506-137.378-137.378-137.378s-137.378 61.506-137.378 137.378c0 75.872 61.506 137.378 137.378 137.378s137.378-61.506 137.378-137.378z" />
<glyph unicode="&#xe97c;" glyph-name="qr-code" d="M0 960v-467.509h467.509v467.509zM400.702 559.298h-333.895v333.895h333.895zM133.544 826.456h200.351v-200.351h-200.351zM556.491 960v-467.509h467.509v467.509zM957.193 559.298h-333.895v333.895h333.895zM690.105 826.456h200.351v-200.351h-200.351zM0 403.509v-467.509h467.509v467.509zM400.702 2.807h-333.895v333.895h333.895zM133.544 269.895h200.351v-200.351h-200.351zM556.491 403.509v-467.509h133.544v66.807h-66.807v133.544h66.807v66.666h-66.807v133.544h66.807v66.807zM957.193 403.509h66.807v-66.807h-66.807zM957.263 2.807h-66.807v-66.807h133.544v311.649h-66.807zM756.842 403.509h133.544v-66.807h-133.544zM890.386 136.351h-66.807v66.807h66.807v66.807h-133.544v-200.351h133.544zM756.842 2.807h66.807v-66.807h-66.807z" />
</font>
</defs>
</svg>
